3096 Days 2013 1080p BluRay x264 DTS-FGT

https://www.imdb.com/title/tt1667355/

3096 Tage is a movie starring Antonia Campbell-Hughes, Thure Lindhardt, and Amelia Pidgeon. A young Austrian girl is kidnapped and held in captivity for eight years. Based on the factual case of Natascha Kampusch.

General
Complete name : 3096 Days 2013 1080p BluRay x264 DTS-FGT
Format : Matroska
Format version : Version 4
File size : 8.62 GiB
Duration : 1 h 49 min
Overall bit rate : 11.2 Mb/s
Movie name : 3096.Days.2013.1080p.BluRay.x264.DTS-FGT
Encoded date : UTC 2016-03-23 16:35:44
Writing application : mkvmerge v8.9.0 (‘Father Daughter’) 64bit
Writing library : libebml v1.3.3 + libmatroska v1.4.4

Video
ID : 1
Format : AVC
Format/Info : Advanced Video Codec
Format profile : High@L4.1
Format settings : CABAC / 5 Ref Frames
Format settings, CABAC : Yes
Format settings, Reference frames : 5 frames
Codec ID : V_MPEG4/ISO/AVC
Duration : 1 h 49 min
Bit rate : 9 711 kb/s
Width : 1 920 pixels
Height : 816 pixels
Display aspect ratio : 2.35:1
Frame rate mode : Constant
Frame rate : 23.976 (24000/1001) FPS
Color space : YUV
Chroma subsampling : 4:2:0
Bit depth : 8 bits
Scan type : Progressive
Bits/(Pixel*Frame) : 0.259
Stream size : 7.29 GiB (85%)
Writing library : x264 core 130 r2273 b3065e6
Language : English
Default : Yes
Forced : No

Audio
ID : 2
Format : DTS
Format/Info : Digital Theater Systems
Codec ID : A_DTS
Duration : 1 h 49 min
Bit rate mode : Constant
Bit rate : 1 510 kb/s
Channel(s) : 6 channels
Channel layout : C L R Ls Rs LFE
Sampling rate : 48.0 kHz
Frame rate : 93.750 FPS (512 SPF)
Bit depth : 24 bits
Compression mode : Lossy
Stream size : 1.16 GiB (13%)
Language : English
Default : Yes
Forced : No

Text
ID : 3
Format : UTF-8
Codec ID : S_TEXT/UTF8
Codec ID/Info : UTF-8 Plain Text
Language : English
Default : No
Forced : No

Download:

https://nitroflare.com/view/54C68D7858C977C/ddldd.me_3096.Days.2013.1080p.BluRay.x264.part1.rar
https://nitroflare.com/view/47DD99DA6BAC134/ddldd.me_3096.Days.2013.1080p.BluRay.x264.part2.rar
https://nitroflare.com/view/7D6D2E220185424/ddldd.me_3096.Days.2013.1080p.BluRay.x264.part3.rar
https://nitroflare.com/view/C49102C4F9F4982/ddldd.me_3096.Days.2013.1080p.BluRay.x264.part4.rar
https://nitroflare.com/view/0E17F70AEA53D64/ddldd.me_3096.Days.2013.1080p.BluRay.x264.part5.rar