Age of The Living Dead S01 1080p AMZN WEB-DL DDP2.0 H.264-NTG

https://www.imdb.com/title/tt5338744/

In an America quarantined by the rest of the world, humans and vampires co-exist on opposite coasts thanks to a peace treaty, while each side plots to destroy the other.

General
Unique ID : 6932630827018423442988857041011705435 (0x5372D16E0511A3356820B177E2D865B)
Complete name : Age.of.The.Living.Dead.S01E01.Episode.1.1.1080p.AMZN.WEB-DL.DDP2.0.H.264-NTG.mkv
Format : Matroska
Format version : Version 4
File size : 3.08 GiB
Duration : 45 min 2 s
Overall bit rate : 9 786 kb/s
Encoded date : UTC 2019-09-02 07:29:31
Writing application : mkvmerge v21.0.0 (‘Tardigrades Will Inherit The Earth’) 64-bit
Writing library : libebml v1.3.5 + libmatroska v1.4.8

Video
ID : 1
Format : AVC
Format/Info : Advanced Video Codec
Format profile : High@L4
Format settings : CABAC / 4 Ref Frames
Format settings, CABAC : Yes
Format settings, Reference frames : 4 frames
Codec ID : V_MPEG4/ISO/AVC
Duration : 45 min 2 s
Bit rate mode : Constant
Bit rate : 10 000 kb/s
Width : 1 920 pixels
Height : 1 080 pixels
Display aspect ratio : 16:9
Frame rate mode : Constant
Frame rate : 23.976 (24000/1001) FPS
Color space : YUV
Chroma subsampling : 4:2:0
Bit depth : 8 bits
Scan type : Progressive
Bits/(Pixel*Frame) : 0.201
Stream size : 3.01 GiB (98%)
Default : Yes
Forced : No
Color range : Limited
Color primaries : BT.709
Transfer characteristics : BT.709
Matrix coefficients : BT.709

Audio
ID : 2
Format : E-AC-3
Format/Info : Enhanced AC-3
Commercial name : Dolby Digital Plus
Codec ID : A_EAC3
Duration : 45 min 2 s
Bit rate mode : Constant
Bit rate : 224 kb/s
Channel(s) : 2 channels
Channel layout : L R
Sampling rate : 48.0 kHz
Frame rate : 31.250 FPS (1536 SPF)
Compression mode : Lossy
Stream size : 72.2 MiB (2%)
Language : English
Service kind : Complete Main
Default : Yes
Forced : No

Text #1
ID : 3
Format : UTF-8
Codec ID : S_TEXT/UTF8
Codec ID/Info : UTF-8 Plain Text
Duration : 44 min 47 s
Bit rate : 74 b/s
Count of elements : 971
Stream size : 24.6 KiB (0%)
Language : English
Default : No
Forced : No

Text #2
ID : 4
Format : UTF-8
Codec ID : S_TEXT/UTF8
Codec ID/Info : UTF-8 Plain Text
Duration : 44 min 47 s
Bit rate : 76 b/s
Count of elements : 971
Stream size : 25.2 KiB (0%)
Title : SDH
Language : English
Default : No
Forced : No

15,95 GB

Download:

https://nitroflare.com/view/78CC75A5E2C691A/ddldd.me_Age.of.The.Living.Dead.S01.1080p.AMZN.WEB-DL.DDP2.0.H.part01.rar
https://nitroflare.com/view/2FF4F25281EBAE1/ddldd.me_Age.of.The.Living.Dead.S01.1080p.AMZN.WEB-DL.DDP2.0.H.part02.rar
https://nitroflare.com/view/6E2B97B2BC14E5F/ddldd.me_Age.of.The.Living.Dead.S01.1080p.AMZN.WEB-DL.DDP2.0.H.part03.rar
https://nitroflare.com/view/99D2EB318C93F35/ddldd.me_Age.of.The.Living.Dead.S01.1080p.AMZN.WEB-DL.DDP2.0.H.part04.rar
https://nitroflare.com/view/B75A23216C9DD5D/ddldd.me_Age.of.The.Living.Dead.S01.1080p.AMZN.WEB-DL.DDP2.0.H.part05.rar
https://nitroflare.com/view/C9790248902EB58/ddldd.me_Age.of.The.Living.Dead.S01.1080p.AMZN.WEB-DL.DDP2.0.H.part06.rar
https://nitroflare.com/view/CEB3F18C83C475C/ddldd.me_Age.of.The.Living.Dead.S01.1080p.AMZN.WEB-DL.DDP2.0.H.part07.rar
https://nitroflare.com/view/0C415FD59BBBD17/ddldd.me_Age.of.The.Living.Dead.S01.1080p.AMZN.WEB-DL.DDP2.0.H.part08.rar
https://nitroflare.com/view/17C23461A342D0F/ddldd.me_Age.of.The.Living.Dead.S01.1080p.AMZN.WEB-DL.DDP2.0.H.part09.rar