Lovecraft Country S01 1080p AMZN WEB-DL DDP5 .1 H.264-NTb

https://www.imdb.com/title/tt6905686/

A young African-American travels across the U.S. in the 1950s in search of his missing father.

General
Unique ID : 158649801931808623819192140826314409365 (0x775AD725D749F88645129209AF9E0595)
Complete name : Lovecraft.Country.S01E01.Sundown.1080p.AMZN.WEB-DL.DDP5.1.H.264-NTb.mkv
Format : Matroska
Format version : Version 4
File size : 4.40 GiB
Duration : 1 h 9 min
Overall bit rate : 9 055 kb/s
Encoded date : UTC 2020-08-17 01:13:30
Writing application : mkvmerge v44.0.0 (‘Domino’) 64-bit
Writing library : libebml v1.3.10 + libmatroska v1.5.2

Video
ID : 1
Format : AVC
Format/Info : Advanced Video Codec
Format profile : High@L4
Format settings : CABAC / 4 Ref Frames
Format settings, CABAC : Yes
Format settings, Reference frames : 4 frames
Codec ID : V_MPEG4/ISO/AVC
Duration : 1 h 9 min
Bit rate mode : Constant
Bit rate : 8 413 kb/s
Nominal bit rate : 10 000 kb/s
Width : 1 920 pixels
Height : 1 080 pixels
Display aspect ratio : 16:9
Frame rate mode : Constant
Frame rate : 23.976 (24000/1001) FPS
Color space : YUV
Chroma subsampling : 4:2:0
Bit depth : 8 bits
Scan type : Progressive
Bits/(Pixel*Frame) : 0.169
Stream size : 4.09 GiB (93%)
Default : Yes
Forced : No
Color range : Limited
Color primaries : BT.709
Transfer characteristics : BT.709
Matrix coefficients : BT.709

Audio
ID : 2
Format : E-AC-3
Format/Info : Enhanced AC-3
Commercial name : Dolby Digital Plus
Codec ID : A_EAC3
Duration : 1 h 9 min
Bit rate mode : Constant
Bit rate : 640 kb/s
Channel(s) : 6 channels
Channel layout : L R C LFE Ls Rs
Sampling rate : 48.0 kHz
Frame rate : 31.250 FPS (1536 SPF)
Compression mode : Lossy
Delay relative to video : 12 ms
Stream size : 319 MiB (7%)
Language : English
Service kind : Complete Main
Default : Yes
Forced : No

Text
ID : 3
Format : UTF-8
Codec ID : S_TEXT/UTF8
Codec ID/Info : UTF-8 Plain Text
Duration : 1 h 9 min
Bit rate : 73 b/s
Count of elements : 1348
Stream size : 37.2 KiB (0%)
Title : SDH
Language : English
Default : No
Forced : No

Download:

https://nitroflare.com/view/D1D756AABDE95A5/ddldd.me_l0veCraC0u.S01.1080p.AMZN.WEB-DL.DDP5.1.H.part01.rar
https://nitroflare.com/view/231D1B3EAB6F687/ddldd.me_l0veCraC0u.S01.1080p.AMZN.WEB-DL.DDP5.1.H.part02.rar
https://nitroflare.com/view/CB6ADFB565E3145/ddldd.me_l0veCraC0u.S01.1080p.AMZN.WEB-DL.DDP5.1.H.part03.rar
https://nitroflare.com/view/083248BBBF985B6/ddldd.me_l0veCraC0u.S01.1080p.AMZN.WEB-DL.DDP5.1.H.part04.rar
https://nitroflare.com/view/297F924CF76C4A4/ddldd.me_l0veCraC0u.S01.1080p.AMZN.WEB-DL.DDP5.1.H.part05.rar
https://nitroflare.com/view/696A54F926DD93C/ddldd.me_l0veCraC0u.S01.1080p.AMZN.WEB-DL.DDP5.1.H.part06.rar
https://nitroflare.com/view/E48A68EC49B225E/ddldd.me_l0veCraC0u.S01.1080p.AMZN.WEB-DL.DDP5.1.H.part07.rar
https://nitroflare.com/view/A2D50D46C384939/ddldd.me_l0veCraC0u.S01.1080p.AMZN.WEB-DL.DDP5.1.H.part08.rar
https://nitroflare.com/view/A219A3EE77A9AEA/ddldd.me_l0veCraC0u.S01.1080p.AMZN.WEB-DL.DDP5.1.H.part09.rar
https://nitroflare.com/view/AD3098707148464/ddldd.me_l0veCraC0u.S01.1080p.AMZN.WEB-DL.DDP5.1.H.part10.rar
https://nitroflare.com/view/3934083D494DF2A/ddldd.me_l0veCraC0u.S01.1080p.AMZN.WEB-DL.DDP5.1.H.part11.rar
https://nitroflare.com/view/DEE43890C3189AF/ddldd.me_l0veCraC0u.S01.1080p.AMZN.WEB-DL.DDP5.1.H.part12.rar
https://nitroflare.com/view/C266778B86982F5/ddldd.me_l0veCraC0u.S01.1080p.AMZN.WEB-DL.DDP5.1.H.part13.rar
https://nitroflare.com/view/DF43A5B81042A0F/ddldd.me_l0veCraC0u.S01.1080p.AMZN.WEB-DL.DDP5.1.H.part14.rar
https://nitroflare.com/view/F1F9234E5892D50/ddldd.me_l0veCraC0u.S01.1080p.AMZN.WEB-DL.DDP5.1.H.part15.rar
https://nitroflare.com/view/92DDF9DFDE18C47/ddldd.me_l0veCraC0u.S01.1080p.AMZN.WEB-DL.DDP5.1.H.part16.rar