Richard Hammonds How to Build a Planet S01 1080p AMZN WEB-DL DDP2.0 H.264-QOQ

https://www.imdb.com/title/tt3249220/

Join host Richard Hammond on the ultimate engineering project. How to Build a Planet uses stunning interactive CGI to reveal step-by-step how a world is put together. With a little help from the world’s top scientists and engineers, Hammond will build the Earth and Solar System piece by piece.

 

Format : Matroska
Format version : Version 4 / Version 2
File size : 4.27 GiB
Duration : 59 min 8 s
Overall bit rate : 10.3 Mb/s
Encoded date : UTC 2019-01-07 00:38:50
Writing application : mkvmerge v29.0.0 (‘Like It Or Not’) 64-bit
Writing library : libebml v1.3.6 + libmatroska v1.4.9

Video
ID : 1
Format : AVC
Format/Info : Advanced Video Codec
Format profile : High@L4
Format settings, CABAC : Yes
Format settings, ReFrames : 4 frames
Codec ID : V_MPEG4/ISO/AVC
Duration : 59 min 7 s
Bit rate : 10.1 Mb/s
Width : 1 920 pixels
Height : 1 080 pixels
Display aspect ratio : 16:9
Frame rate mode : Constant
Frame rate : 25.000 FPS
Color space : YUV
Chroma subsampling : 4:2:0
Bit depth : 8 bits
Scan type : Progressive
Bits/(Pixel*Frame) : 0.195
Stream size : 4.18 GiB (98%)
Default : Yes
Forced : No
Color range : Limited
Color primaries : BT.709
Transfer characteristics : BT.709
Matrix coefficients : BT.709

Audio
ID : 2
Format : E-AC-3
Format/Info : Enhanced Audio Coding 3
Format settings, Endianness : Big
Codec ID : A_EAC3
Duration : 59 min 8 s
Bit rate mode : Constant
Bit rate : 224 kb/s
Channel(s) : 2 channels
Channel positions : Front: L R
Sampling rate : 48.0 kHz
Frame rate : 187.500 FPS (256 spf)
Compression mode : Lossy
Stream size : 94.7 MiB (2%)
Language : English
Default : Yes
Forced : No

Text
ID : 3
Format : UTF-8
Codec ID : S_TEXT/UTF8
Codec ID/Info : UTF-8 Plain Text
Duration : 58 min 24 s
Bit rate : 76 b/s
Count of elements : 849
Stream size : 32.8 KiB (0%)
Title : English (SDH)
Language : English
Default : No
Forced : No

8,7 GB

Download:

https://nitroflare.com/view/BB54410C85CD674/ddldd.me_Richard.Hammonds.How.to.Build.a.Planet.S01.1080p.AMZN.WEB-DL.DDP2.0.H.part1.rar
https://nitroflare.com/view/D1F6F448BE85451/ddldd.me_Richard.Hammonds.How.to.Build.a.Planet.S01.1080p.AMZN.WEB-DL.DDP2.0.H.part2.rar
https://nitroflare.com/view/C06FCCE9D30EA9A/ddldd.me_Richard.Hammonds.How.to.Build.a.Planet.S01.1080p.AMZN.WEB-DL.DDP2.0.H.part3.rar
https://nitroflare.com/view/353ED03BCAC5E24/ddldd.me_Richard.Hammonds.How.to.Build.a.Planet.S01.1080p.AMZN.WEB-DL.DDP2.0.H.part4.rar
https://nitroflare.com/view/2FA2F908DB9C6F5/ddldd.me_Richard.Hammonds.How.to.Build.a.Planet.S01.1080p.AMZN.WEB-DL.DDP2.0.H.part5.rar