Tenet 2020 UHD BluRay HDR10 2160p Dts-HD Ma5.1 H265-d3g

https://www.imdb.com/title/tt6723592/

Armed with only one word, Tenet, and fighting for the survival of the entire world, a Protagonist journeys through a twilight world of…

Complete name : Tenet 2020 UHD BluRay HDR10 2160p Dts-HD Ma5.1 H265-d3g.mkv
Format : Matroska
Format version : Version 2
File size : 31.4 GiB
Duration : 2 h 30 min
Overall bit rate mode : Variable
Overall bit rate : 30.0 Mb/s
Movie name : Tenet 2020 UHD BluRay HDR10 2160p Dts-HD Ma5.1 H265-d3g
Encoded date : UTC 2020-12-08 15:35:58
Writing application : DVDFab 12.0.0.9
Writing library : libebml v1.3.4 + libmatroska v1.4.5

Video
ID : 1
Format : HEVC
Format/Info : High Efficiency Video Coding
Format profile : Main 10@L5.1@High
HDR format : SMPTE ST 2086, HDR10 compatible
Codec ID : V_MPEGH/ISO/HEVC
Duration : 2 h 30 min
Bit rate : 25.9 Mb/s
Width : 3 840 pixels
Height : 2 160 pixels
Display aspect ratio : 16:9
Frame rate mode : Constant
Frame rate : 23.976 (24000/1001) FPS
Color space : YUV
Chroma subsampling : 4:2:0 (Type 2)
Bit depth : 10 bits
Bits/(Pixel*Frame) : 0.130
Stream size : 27.2 GiB (86%)
Default : Yes
Forced : No
Color range : Limited
Color primaries : BT.2020
Transfer characteristics : PQ
Matrix coefficients : BT.2020 non-constant
Mastering display color primaries : Display P3
Mastering display luminance : min: 0.0050 cd/m2, max: 4000 cd/m2
Maximum Content Light Level : 349 cd/m2
Maximum Frame-Average Light Level : 86 cd/m2

Audio
ID : 2
Format : DTS XLL
Format/Info : Digital Theater Systems
Commercial name : DTS-HD Master Audio
Codec ID : A_DTS
Duration : 2 h 30 min
Bit rate mode : Variable
Bit rate : 4 036 kb/s
Channel(s) : 6 channels
Channel layout : C L R Ls Rs LFE
Sampling rate : 48.0 kHz
Frame rate : 93.750 FPS (512 SPF)
Bit depth : 24 bits
Compression mode : Lossless
Stream size : 4.23 GiB (13%)
Language : English
Default : Yes
Forced : No

Text
ID : 3
Format : VobSub
Codec ID : S_VOBSUB
Codec ID/Info : Picture based subtitle format used on DVDs
Duration : 2 h 26 min
Bit rate : 8 724 b/s
Count of elements : 2137
Stream size : 9.17 MiB (0%)
Language : English
Default : No
Forced : No

Download:

https://nitroflare.com/view/51B4D65216CAB5A/ddldd.me_T3net.2020.UHD.BluRay.HDR10__hevc-d3g.part01.rar
https://nitroflare.com/view/C3CFA0C2B4AFBF4/ddldd.me_T3net.2020.UHD.BluRay.HDR10__hevc-d3g.part02.rar
https://nitroflare.com/view/DBA943D814E5676/ddldd.me_T3net.2020.UHD.BluRay.HDR10__hevc-d3g.part03.rar
https://nitroflare.com/view/C5141312C07E79E/ddldd.me_T3net.2020.UHD.BluRay.HDR10__hevc-d3g.part04.rar
https://nitroflare.com/view/9E4B463615CFB46/ddldd.me_T3net.2020.UHD.BluRay.HDR10__hevc-d3g.part05.rar
https://nitroflare.com/view/E54CC74CC895DB8/ddldd.me_T3net.2020.UHD.BluRay.HDR10__hevc-d3g.part06.rar
https://nitroflare.com/view/41A306A2BEAE139/ddldd.me_T3net.2020.UHD.BluRay.HDR10__hevc-d3g.part07.rar
https://nitroflare.com/view/C9BE2C6D5BD41E0/ddldd.me_T3net.2020.UHD.BluRay.HDR10__hevc-d3g.part08.rar
https://nitroflare.com/view/FBB7D7EA8724D3C/ddldd.me_T3net.2020.UHD.BluRay.HDR10__hevc-d3g.part09.rar