The Expecting S01 1080p WEB-DL AAC2.0 H.264-WELP

https://www.imdb.com/title/tt11285470/

The dark journey of a young woman down on her luck and pregnant under mysterious circumstances.

General
Format : Matroska
Format version : Version 4
File size : 195 MiB
Duration : 8 min 32 s
Overall bit rate : 3 197 kb/s
Encoded date : UTC 2020-10-21 13:52:38
Writing application : mkvmerge v49.0.0 (‘Sick Of Losing Soulmates’) 64-bit
Writing library : libebml v1.4.0 + libmatroska v1.6.1

Video
ID : 1
Format : AVC
Format/Info : Advanced Video Codec
Format profile : High@L4
Format settings : CABAC / 4 Ref Frames
Format settings, CABAC : Yes
Format settings, Reference frames : 4 frames
Codec ID : V_MPEG4/ISO/AVC
Duration : 8 min 32 s
Bit rate : 3 131 kb/s
Width : 1 920 pixels
Height : 1 080 pixels
Display aspect ratio : 16:9
Frame rate mode : Constant
Frame rate : 24.000 FPS
Color space : YUV
Chroma subsampling : 4:2:0
Bit depth : 8 bits
Scan type : Progressive
Bits/(Pixel*Frame) : 0.063
Stream size : 191 MiB (98%)
Default : Yes
Forced : No

Audio
ID : 2
Format : AAC LC SBR
Format/Info : Advanced Audio Codec Low Complexity with Spectral Band Replication
Commercial name : HE-AAC
Format settings : Explicit
Codec ID : A_AAC-2
Duration : 8 min 32 s
Bit rate : 64.0 kb/s
Channel(s) : 2 channels
Channel layout : L R
Sampling rate : 48.0 kHz
Frame rate : 23.438 FPS (2048 SPF)
Compression mode : Lossy
Stream size : 3.91 MiB (2%)
Language : English
Default : Yes
Forced : No

Text #1
ID : 3
Format : UTF-8
Codec ID : S_TEXT/UTF8
Codec ID/Info : UTF-8 Plain Text
Duration : 6 min 59 s
Bit rate : 30 b/s
Count of elements : 68
Stream size : 1.57 KiB (0%)
Language : English
Default : No
Forced : No

Text #2
ID : 4
Format : UTF-8
Codec ID : S_TEXT/UTF8
Codec ID/Info : UTF-8 Plain Text
Duration : 8 min 13 s
Bit rate : 31 b/s
Count of elements : 87
Stream size : 1.91 KiB (0%)
Title : SDH
Language : English
Default : No
Forced : No

Text #3
ID : 5
Format : UTF-8
Codec ID : S_TEXT/UTF8
Codec ID/Info : UTF-8 Plain Text
Duration : 6 min 59 s
Bit rate : 38 b/s
Count of elements : 76
Stream size : 1.97 KiB (0%)
Language : Spanish
Default : No
Forced : No

1,97 GB

Download:

https://nitroflare.com/view/4BA624B54C02DF2/ddldd.me_The.Expecting.S01.1080p.WEB-DL.AAC2.0.H.part1.rar
https://nitroflare.com/view/095CC0675DEA789/ddldd.me_The.Expecting.S01.1080p.WEB-DL.AAC2.0.H.part2.rar