The Third Day S01 1080p AMZN WEB-DL DDP5 1

https://www.imdb.com/title/tt10482370/

The Third Day is a TV mini-series starring Jude Law, John Dagleish, and Paddy Considine. A man and a woman make separate journeys to a mysterious island off the British coast.

General
Unique ID : 79265277029656355648921776068793884928 (0x3BA1EFE30B18940971D3A82AEBEA6100)
Complete name : The.Third.Day.S01E01.Friday.The.Father.1080p.AMZN.WEB-DL.DDP5.1.H.264-NTb.mkv
Format : Matroska
Format version : Version 4
File size : 3.89 GiB
Duration : 59 min 47 s
Overall bit rate : 9 321 kb/s
Writing application : mkvmerge v45.0.0 (‘Heaven in Pennies’) 64-bit
Writing library : libebml v1.3.10 + libmatroska v1.5.2

Video
ID : 1
Format : AVC
Format/Info : Advanced Video Codec
Format profile : High@L4
Format settings : CABAC / 4 Ref Frames
Format settings, CABAC : Yes
Format settings, Reference frames : 4 frames
Codec ID : V_MPEG4/ISO/AVC
Duration : 59 min 47 s
Bit rate mode : Constant
Bit rate : 8 678 kb/s
Nominal bit rate : 10 000 kb/s
Width : 1 920 pixels
Height : 1 080 pixels
Display aspect ratio : 16:9
Frame rate mode : Constant
Frame rate : 23.976 (24000/1001) FPS
Color space : YUV
Chroma subsampling : 4:2:0
Bit depth : 8 bits
Scan type : Progressive
Bits/(Pixel*Frame) : 0.175
Stream size : 3.62 GiB (93%)
Default : Yes
Forced : No
Color range : Limited
Color primaries : BT.709
Transfer characteristics : BT.709
Matrix coefficients : BT.709

Audio
ID : 2
Format : E-AC-3
Format/Info : Enhanced AC-3
Commercial name : Dolby Digital Plus
Codec ID : A_EAC3
Duration : 59 min 47 s
Bit rate mode : Constant
Bit rate : 640 kb/s
Channel(s) : 6 channels
Channel layout : L R C LFE Ls Rs
Sampling rate : 48.0 kHz
Frame rate : 31.250 FPS (1536 SPF)
Compression mode : Lossy
Stream size : 274 MiB (7%)
Language : English
Service kind : Complete Main
Default : Yes
Forced : No

Text
ID : 3
Format : UTF-8
Codec ID : S_TEXT/UTF8
Codec ID/Info : UTF-8 Plain Text
Duration : 59 min 29 s
Bit rate : 57 b/s
Count of elements : 919
Stream size : 24.9 KiB (0%)
Title : SDH
Language : English
Default : No
Forced : No

Download:

https://nitroflare.com/view/F834D021463C3A7/ddldd.me_3rdDay.S01.1080p.AMZN.WEB-DL.DDP5.1.H.part01.rar
https://nitroflare.com/view/81957FCAF23601E/ddldd.me_3rdDay.S01.1080p.AMZN.WEB-DL.DDP5.1.H.part02.rar
https://nitroflare.com/view/32C44E9EC837A02/ddldd.me_3rdDay.S01.1080p.AMZN.WEB-DL.DDP5.1.H.part03.rar
https://nitroflare.com/view/A23F8C2D57339BD/ddldd.me_3rdDay.S01.1080p.AMZN.WEB-DL.DDP5.1.H.part04.rar
https://nitroflare.com/view/2DCD7C0EDE97EC0/ddldd.me_3rdDay.S01.1080p.AMZN.WEB-DL.DDP5.1.H.part05.rar
https://nitroflare.com/view/162A28F045B33A8/ddldd.me_3rdDay.S01.1080p.AMZN.WEB-DL.DDP5.1.H.part06.rar
https://nitroflare.com/view/5D85F2B3D23CA6B/ddldd.me_3rdDay.S01.1080p.AMZN.WEB-DL.DDP5.1.H.part07.rar
https://nitroflare.com/view/3D6E0B1CE8646B2/ddldd.me_3rdDay.S01.1080p.AMZN.WEB-DL.DDP5.1.H.part08.rar
https://nitroflare.com/view/02F688EBA79B039/ddldd.me_3rdDay.S01.1080p.AMZN.WEB-DL.DDP5.1.H.part09.rar
https://nitroflare.com/view/4007BAC3A4566D2/ddldd.me_3rdDay.S01.1080p.AMZN.WEB-DL.DDP5.1.H.part10.rar
https://nitroflare.com/view/150BB5D1EA26800/ddldd.me_3rdDay.S01.1080p.AMZN.WEB-DL.DDP5.1.H.part11.rar
https://nitroflare.com/view/3AF62D3B9B1BC28/ddldd.me_3rdDay.S01.1080p.AMZN.WEB-DL.DDP5.1.H.part12.rar