To Kill a Mockingbird 1962 BluRay 10Bit 1080p Dts-HD MA 5.1 H265-d3g

https://www.imdb.com/title/tt0056592/

 

 

Complete name : To Kill a Mockingbird 1962 BluRay 10Bit 1080p Dts-HD Ma5.1 H265-d3g.mkv
Format : Matroska
Format version : Version 2
File size : 9.70 GiB
Duration : 2 h 9 min
Overall bit rate mode : Variable
Overall bit rate : 10.8 Mb/s
Encoded date : UTC 2020-10-13 02:11:33
Writing application : DVDFab 12.0.0.1
Writing library : libebml v1.3.4 + libmatroska v1.4.5

Video
ID : 1
Format : HEVC
Format/Info : High Efficiency Video Coding
Format profile : Main 10@L4@High
Codec ID : V_MPEGH/ISO/HEVC
Duration : 2 h 9 min
Bit rate : 8 627 kb/s
Width : 1 920 pixels
Height : 1 040 pixels
Display aspect ratio : 1.85:1
Frame rate mode : Constant
Frame rate : 23.976 (24000/1001) FPS
Color space : YUV
Chroma subsampling : 4:2:0
Bit depth : 10 bits
Bits/(Pixel*Frame) : 0.180
Stream size : 7.78 GiB (80%)
Default : Yes
Forced : No
Color range : Limited
Color primaries : BT.709
Transfer characteristics : BT.709
Matrix coefficients : BT.709

Audio
ID : 2
Format : DTS XLL
Format/Info : Digital Theater Systems
Commercial name : DTS-HD Master Audio
Codec ID : A_DTS
Duration : 2 h 9 min
Bit rate mode : Variable
Bit rate : 2 086 kb/s
Channel(s) : 6 channels
Channel layout : C L R Ls Rs LFE
Sampling rate : 48.0 kHz
Frame rate : 93.750 FPS (512 SPF)
Bit depth : 24 bits
Compression mode : Lossless
Stream size : 1.88 GiB (19%)
Language : English
Default : Yes
Forced : No

Text #1
ID : 3
Format : VobSub
Codec ID : S_VOBSUB
Codec ID/Info : Picture based subtitle format used on DVDs
Duration : 2 h 8 min
Bit rate : 8 667 b/s
Count of elements : 1536
Stream size : 7.96 MiB (0%)
Language : English
Default : No
Forced : No

Text #2
ID : 4
Format : VobSub
Codec ID : S_VOBSUB
Codec ID/Info : Picture based subtitle format used on DVDs
Duration : 2 h 8 min
Bit rate : 15.6 kb/s
Count of elements : 2110
Stream size : 14.4 MiB (0%)
Language : English
Default : No
Forced : No

Text #3
ID : 5
Format : VobSub
Codec ID : S_VOBSUB
Codec ID/Info : Picture based subtitle format used on DVDs
Duration : 2 h 8 min
Bit rate : 6 172 b/s
Count of elements : 754
Stream size : 5.66 MiB (0%)
Language : English
Default : No
Forced : No

Text #4
ID : 6
Format : VobSub
Codec ID : S_VOBSUB
Codec ID/Info : Picture based subtitle format used on DVDs
Duration : 2 h 8 min
Bit rate : 5 412 b/s
Count of elements : 693
Stream size : 4.97 MiB (0%)
Language : English
Default : No
Forced : No

Download:

https://nitroflare.com/view/A078456906F5F8C/ddldd.me_To.Kill.a.Mockingbird.1962.BluRay.10Bit.dts.hevc-d3g.part1.rar
https://nitroflare.com/view/0F48C55673EFA4D/ddldd.me_To.Kill.a.Mockingbird.1962.BluRay.10Bit.dts.hevc-d3g.part2.rar
https://nitroflare.com/view/5249BF6921A734D/ddldd.me_To.Kill.a.Mockingbird.1962.BluRay.10Bit.dts.hevc-d3g.part3.rar
https://nitroflare.com/view/790B711ABB7E83D/ddldd.me_To.Kill.a.Mockingbird.1962.BluRay.10Bit.dts.hevc-d3g.part4.rar
https://nitroflare.com/view/D229DE0B6761220/ddldd.me_To.Kill.a.Mockingbird.1962.BluRay.10Bit.dts.hevc-d3g.part5.rar
https://nitroflare.com/view/F141BF635687F42/ddldd.me_To.Kill.a.Mockingbird.1962.BluRay.10Bit.dts.hevc-d3g.part6.rar