V for Vendetta 2005 UHD BluRay HDR10 2160p TrueHD-7.1 Atmos H265-d3g

https://www.imdb.com/title/tt0434409/

In a future British tyranny, a shadowy freedom fighter, known only by the alias of V, plots to overthrow it with the help of a young woman.

Complete name : V for Vendetta 2005 UHD BluRay HDR10 2160p TrueHD-7.1 Atmos H265-d3g.mkv
Format : Matroska
Format version : Version 2
File size : 24.2 GiB
Duration : 2 h 12 min
Overall bit rate mode : Variable
Overall bit rate : 26.1 Mb/s
Movie name : V for Vendetta 2005 UHD BluRay HDR10 2160p TrueHD-7.1 Atmos H265-d3g
Encoded date : UTC 2020-11-02 17:28:04
Writing application : DVDFab 12.0.0.4
Writing library : libebml v1.3.4 + libmatroska v1.4.5

Video
ID : 1
Format : HEVC
Format/Info : High Efficiency Video Coding
Format profile : Main 10@L5.1@High
HDR format : SMPTE ST 2086, HDR10 compatible
Codec ID : V_MPEGH/ISO/HEVC
Duration : 2 h 12 min
Bit rate : 22.9 Mb/s
Width : 3 840 pixels
Height : 1 608 pixels
Display aspect ratio : 2.40:1
Frame rate mode : Constant
Frame rate : 23.976 (24000/1001) FPS
Color space : YUV
Chroma subsampling : 4:2:0 (Type 2)
Bit depth : 10 bits
Bits/(Pixel*Frame) : 0.155
Stream size : 21.2 GiB (88%)
Default : Yes
Forced : No
Color range : Limited
Color primaries : BT.2020
Transfer characteristics : PQ
Matrix coefficients : BT.2020 non-constant
Mastering display color primaries : Display P3
Mastering display luminance : min: 0.0050 cd/m2, max: 4000 cd/m2
Maximum Content Light Level : 2491 cd/m2
Maximum Frame-Average Light Level : 130 cd/m2

Audio
ID : 2
Format : MLP FBA 16-ch
Format/Info : Meridian Lossless Packing FBA with 16-channel presentation
Commercial name : Dolby TrueHD with Dolby Atmos
Codec ID : A_TRUEHD
Duration : 2 h 12 min
Bit rate mode : Variable
Bit rate : 3 165 kb/s
Maximum bit rate : 6 012 kb/s
Channel(s) : 8 channels
Channel layout : L R C LFE Ls Rs Lb Rb
Sampling rate : 48.0 kHz
Frame rate : 1 200.000 FPS (40 SPF)
Compression mode : Lossless
Stream size : 2.93 GiB (12%)
Language : English
Default : Yes
Forced : No
Number of dynamic objects : 11
Bed channel count : 1 channel
Bed channel configuration : LFE

Text #1
ID : 3
Format : VobSub
Codec ID : S_VOBSUB
Codec ID/Info : Picture based subtitle format used on DVDs
Duration : 2 h 3 min
Bit rate : 11.8 kb/s
Count of elements : 1820
Stream size : 10.4 MiB (0%)
Language : English
Default : No
Forced : No

Text #2
ID : 4
Format : VobSub
Codec ID : S_VOBSUB
Codec ID/Info : Picture based subtitle format used on DVDs
Bit rate : 0 b/s
Count of elements : 0
Stream size : 0.00 Byte (0%)
Language : English
Default : No
Forced : No

Download:

https://nitroflare.com/view/B23F7889AB93CD7/ddldd.me_V.for.Vendetta.2005.UHD.BluRay.HDR10.truehd.hevc-d3g.part1.rar
https://nitroflare.com/view/A3661D4B84BA1D4/ddldd.me_V.for.Vendetta.2005.UHD.BluRay.HDR10.truehd.hevc-d3g.part2.rar
https://nitroflare.com/view/3F5E471CBC8D649/ddldd.me_V.for.Vendetta.2005.UHD.BluRay.HDR10.truehd.hevc-d3g.part3.rar
https://nitroflare.com/view/4C75C7019FC7038/ddldd.me_V.for.Vendetta.2005.UHD.BluRay.HDR10.truehd.hevc-d3g.part4.rar
https://nitroflare.com/view/074AD9419755545/ddldd.me_V.for.Vendetta.2005.UHD.BluRay.HDR10.truehd.hevc-d3g.part5.rar
https://nitroflare.com/view/99DA9AEA1D865F5/ddldd.me_V.for.Vendetta.2005.UHD.BluRay.HDR10.truehd.hevc-d3g.part6.rar
https://nitroflare.com/view/348E230C4FD699E/ddldd.me_V.for.Vendetta.2005.UHD.BluRay.HDR10.truehd.hevc-d3g.part7.rar