Without a Clue 1988 1080p BluRay X264-AMIABLE

https://www.imdb.com/title/tt0096454/

A drunken Sherlock Holmes is really just a cover for the real detective, Dr. Watson.

General
Complete name : Without a Clue 1988 1080p BluRay X264-AMIABLE
Format : Matroska
Format version : Version 2
File size : 8.74 GiB
Duration : 1 h 46 min
Overall bit rate : 11.7 Mb/s
Writing application : mkvmerge v6.6.0 (‘The Edge Of The In Between’) built on Dec 1 2013 17:55:00
Writing library : libebml v1.3.0 + libmatroska v1.4.1

Video
ID : 1
Format : AVC
Format/Info : Advanced Video Codec
Format profile : High@L4.1
Format settings : CABAC / 4 Ref Frames
Format settings, CABAC : Yes
Format settings, Reference frames : 4 frames
Codec ID : V_MPEG4/ISO/AVC
Duration : 1 h 46 min
Bit rate : 10.2 Mb/s
Width : 1 920 pixels
Height : 1 080 pixels
Display aspect ratio : 16:9
Frame rate mode : Constant
Frame rate : 24.000 FPS
Color space : YUV
Chroma subsampling : 4:2:0
Bit depth : 8 bits
Scan type : Progressive
Bits/(Pixel*Frame) : 0.205
Stream size : 7.44 GiB (85%)
Writing library : x264 core 142 r2453 ea0ca51
Language : English
Default : Yes
Forced : No

Audio
ID : 2
Format : DTS
Format/Info : Digital Theater Systems
Codec ID : A_DTS
Duration : 1 h 46 min
Bit rate mode : Constant
Bit rate : 1 509 kb/s
Channel(s) : 2 channels
Channel layout : L R
Sampling rate : 48.0 kHz
Frame rate : 93.750 FPS (512 SPF)
Bit depth : 24 bits
Compression mode : Lossy
Stream size : 1.12 GiB (13%)
Language : English
Default : Yes
Forced : No

Download:

https://nitroflare.com/view/510F01FBF7875C1/ddldd.me_Without.a.Clue.1988.1080p.BluRay.X264-AMIABLE.part1.rar
https://nitroflare.com/view/82402DCD43D700B/ddldd.me_Without.a.Clue.1988.1080p.BluRay.X264-AMIABLE.part2.rar
https://nitroflare.com/view/4EC9E06416B61A6/ddldd.me_Without.a.Clue.1988.1080p.BluRay.X264-AMIABLE.part3.rar
https://nitroflare.com/view/32A4062638E3A5C/ddldd.me_Without.a.Clue.1988.1080p.BluRay.X264-AMIABLE.part4.rar
https://nitroflare.com/view/E867A7EF0BEAFFE/ddldd.me_Without.a.Clue.1988.1080p.BluRay.X264-AMIABLE.part5.rar